<?xml version="1.0" standalone="no"?>
<!DOCTYPE svg PUBLIC "-//W3C//DTD SVG 1.1//EN" "http://www.w3.org/Graphics/SVG/1.1/DTD/svg11.dtd" >
<!--
2013-9-30: Created.
-->
<svg>
<metadata>
Created by iconfont
</metadata>
<defs>

<font id="iconfont" horiz-adv-x="1024" >
  <font-face
    font-family="iconfont"
    font-weight="500"
    font-stretch="normal"
    units-per-em="1024"
    ascent="896"
    descent="-128"
  />
    <missing-glyph />
    
    <glyph glyph-name="x" unicode="x" horiz-adv-x="1001"
d="M281 543q-27 -1 -53 -1h-83q-18 0 -36.5 -6t-32.5 -18.5t-23 -32t-9 -45.5v-76h912v41q0 16 -0.5 30t-0.5 18q0 13 -5 29t-17 29.5t-31.5 22.5t-49.5 9h-133v-97h-438v97zM955 310v-52q0 -23 0.5 -52t0.5 -58t-10.5 -47.5t-26 -30t-33 -16t-31.5 -4.5q-14 -1 -29.5 -0.5
t-29.5 0.5h-32l-45 128h-439l-44 -128h-29h-34q-20 0 -45 1q-25 0 -41 9.5t-25.5 23t-13.5 29.5t-4 30v167h911zM163 247q-12 0 -21 -8.5t-9 -21.5t9 -21.5t21 -8.5q13 0 22 8.5t9 21.5t-9 21.5t-22 8.5zM316 123q-8 -26 -14 -48q-5 -19 -10.5 -37t-7.5 -25t-3 -15t1 -14.5
t9.5 -10.5t21.5 -4h37h67h81h80h64h36q23 0 34 12t2 38q-5 13 -9.5 30.5t-9.5 34.5q-5 19 -11 39h-368zM336 498v228q0 11 2.5 23t10 21.5t20.5 15.5t34 6h188q31 0 51.5 -14.5t20.5 -52.5v-227h-327z" />
    

    
    <glyph glyph-name="house" unicode="&#58914;" d="M990.95893333 367.616l-438.21738666 438.59968c-22.39146667 23.26528-59.03701333 23.26528-81.42848 0l-438.272-438.59968c-22.44608-23.21066667-14.09024-42.27072 18.56853333-42.27072l91.36810667 0 0-336.85504c0-24.30293333 1.03765333-44.18218667 45.00138666-44.18218667l212.71893334 0 0 337.94730667 222.54933333 0 0-337.94730667 223.31392 0c33.53258667 0 34.46101333 19.82464 34.46101333 44.18218667l0 336.85504 91.31349334 0c32.60416 0 41.01461333 19.00544 18.62314666 42.27072z"  horiz-adv-x="1024" />

    
    <glyph glyph-name="door" unicode="&#58883;" d="M145.91262613 859.2233984l0-950.28088533 743.3229664 0L889.23559253 859.2233984 145.91262613 859.2233984zM816.78691093-22.030435200000056L218.36130667-22.030435200000056 218.36130667 790.19853013l598.424512 0L816.78581973-22.030435200000056zM217.26973547 790.19853013L217.26973547-29.998579199999995l500.8020128 72.0363904L718.07174933 728.02844907 217.26973547 790.19853013zM663.22356373 410.40948587c-13.1119552 0-23.74058453 10.62819413-23.74058453 23.7396128s10.6286304 23.7396128 23.74058453 23.7396128 23.74058453-10.62819413 23.74058454-23.7396128S676.33551893 410.40948587 663.22356373 410.40948587z"  horiz-adv-x="1024" />

    
    <glyph glyph-name="liebiao" unicode="&#58905;" d="M381.703 512.605l479.489 0c37.013 0 66.967 30.005 66.967 66.993 0 36.987-29.954 66.978-66.967 66.978L381.703 646.576c-36.996 0-66.986-29.991-66.986-66.978C314.717 542.61 344.707 512.605 381.703 512.605zM186.773 646.577l-7.68 0c-37.002 0-66.993-29.991-66.993-66.978 0-36.988 29.991-66.993 66.993-66.993l7.68 0c37.01 0 67 30.005 67 66.993C253.773 616.586 223.784 646.577 186.773 646.577zM861.192 378.636 381.703 378.636c-36.996 0-66.986-29.991-66.986-66.979 0-36.99 29.99-66.993 66.986-66.993l479.489 0c37.013 0 66.967 30.003 66.967 66.993C928.159 348.644 898.204 378.636 861.192 378.636zM186.773 378.636l-7.68 0c-37.002 0-66.993-29.991-66.993-66.979 0-36.99 29.991-66.993 66.993-66.993l7.68 0c37.01 0 67 30.003 67 66.993C253.773 348.644 223.784 378.636 186.773 378.636zM861.192 110.707 381.703 110.707c-36.996 0-66.986-30.002-66.986-66.985 0-36.995 29.99-66.992 66.986-66.992l479.489 0c37.013 0 66.967 29.997 66.967 66.992C928.159 80.705 898.204 110.707 861.192 110.707zM186.773 110.707l-7.68 0c-37.002 0-66.993-30.002-66.993-66.985 0-36.995 29.991-66.992 66.993-66.992l7.68 0c37.01 0 67 29.997 67 66.992C253.773 80.705 223.784 110.707 186.773 110.707z"  horiz-adv-x="1024" />

    
    <glyph glyph-name="fawenguanli" unicode="&#59022;" d="M510.371933 161.69660239999996c0 147.06919714 119.22381356 266.2930107 266.29301069 266.2930107 79.22687365 0 150.35977491-34.61199728 199.13821131-89.52383691L975.80315371 504.78829412c0 51.13641843-41.83828596 92.97470439-92.9747044 92.97470439L536.83696985 597.76299851c0.03576679 0.42655683-2.58848106-0.46762218-2.56331134-0.03841672-3.03888198-0.83324251-3.58466321 0.03841671-6.8884867 0.03841672-19.88520691 0-36.00691663 16.12038412-36.00691663 36.00691665 0 2.37255337 0.23579886 4.68814576 0.67295278 6.93220194-0.04768949-0.00662415-0.09670331-0.00794846-0.14306848-0.01457131l0 19.81102339c0 37.92641915-31.02998398 68.95640443-68.95640443 68.95640442L118.78926619 729.4549736c-37.92641915 0-68.95640443-31.02998398-68.95640444-68.95640442l0-135.53495564c0-0.86371075 0.03444247-1.71947175 0.06623505-2.57655965-1.10480686-5.70419648-1.70357612-11.58325532-1.70357612-17.59743545l0-491.05639348c0-51.13641843 41.83828596-92.97470439 92.97470441-92.97470441l521.98437431 0C572.86110773-36.628237549999994 510.371933 55.229737279999995 510.371933 161.69660239999996zM782.24064302 396.71588179c-132.12912901 0-239.23980298-107.11199827-239.23980298-239.23980297s107.11199827-239.23980298 239.23980298-239.23980297 239.23980298 107.11199827 239.23980296 239.23980297S914.36977203 396.71588179 782.24064302 396.71588179zM807.75983842 195.43826606000005l0-172.85598397-52.98836158 0L754.77147684 195.54424343000005l-59.55626881 0.1205487 86.05044961 96.70375911 87.99909606-97.0548081L807.75983842 195.43826606000005z"  horiz-adv-x="1024" />

    
    <glyph glyph-name="shouwenguanli" unicode="&#59032;" d="M510.371933 204.36326906c0 147.06919714 119.22381356 266.2930107 266.29301069 266.2930107 79.22687365 0 150.35977491-34.61199728 199.13821131-89.52383691L975.80315371 547.45496078c0 51.13641843-41.83828596 92.97470439-92.9747044 92.97470439L536.83696985 640.42966517c0.03576679 0.42655683-2.58848106-0.46762218-2.56331134-0.03841672-3.03888198-0.83324251-3.58466321 0.03841671-6.8884867 0.03841672-19.88520691 0-36.00691663 16.12038412-36.00691663 36.00691665 0 2.37255337 0.23579886 4.68814576 0.67295278 6.93220194-0.04768949-0.00662415-0.09670331-0.00794846-0.14306848-0.01457131l0 19.81102339c0 37.92641915-31.02998398 68.95640443-68.95640443 68.95640442L118.78926619 772.12164026c-37.92641915 0-68.95640443-31.02998398-68.95640444-68.95640442l0-135.53495564c0-0.86371075 0.03444247-1.71947175 0.06623505-2.57655965-1.10480686-5.70419648-1.70357612-11.58325532-1.70357612-17.59743545l0-491.05639348c0-51.13641843 41.83828596-92.97470439 92.97470441-92.97470441l521.98437431 0C572.86110773 6.038429110000038 510.371933 97.89640394000003 510.371933 204.36326906zM781.67234331 443.0453694c-132.12912901 0-239.23980298-107.11199827-239.23980298-239.23980296s107.11199827-239.23980298 239.23980298-239.23980298 239.23980298 107.11199827 239.23980296 239.23980298S913.80147232 443.0453694 781.67234331 443.0453694zM778.48774291 60.38461763999999l-87.99909606 97.0548081 61.50491527-0.12452292L751.99356212 330.17221109l52.98836157 0 0-172.96328436 59.55626883-0.1205487L778.48774291 60.38461763999999z"  horiz-adv-x="1024" />

    
    <glyph glyph-name="che" unicode="&#59166;" d="M924.383332 450.359948l-30.186869 0L791.151794 671.491556c0 0-1.125612 3.172179-3.581493 7.469971-0.818627 1.534926-1.637254 2.865194-2.558209 4.195463-5.935045 9.107225-16.474868 20.363346-32.233437 20.363346l-177.539722 0 0 29.982212c0 0 0 32.02878-32.847407 31.926451l-62.113321 0c-32.847407 0-32.847407-32.02878-32.847407-32.02878l0-29.982212-178.358349 0c-15.963226-0.511642-25.582093-11.767763-30.800839-20.874988-1.125612-1.739582-2.251224-3.581493-3.172179-5.730389L129.598881 450.359948 99.309683 450.359948c-19.135405 0-34.791646-15.656241-34.791646-34.791646l0-314.455081c0-19.135405 15.656241-34.791646 34.791646-34.791646l29.572899 0 0-32.02878c0-32.847407 32.02878-32.847407 32.02878-32.847407s32.02878 0 31.926451 32.847407l0 32.02878 637.505746 0 0-32.02878c0-32.847407 32.02878-32.847407 32.02878-32.847407s32.02878 0 31.926451 32.847407l0 32.02878 29.982212 0c19.135405 0 34.791646 15.656241 34.791646 34.791646L959.072649 415.568302C959.174978 434.703707 943.518737 450.359948 924.383332 450.359948zM288.310183 639.462776l447.174978 0 88.207055-189.102828L200.103128 450.359948 288.310183 639.462776zM222.308384 192.594784c-35.507944 0-64.364545 28.754272-64.364545 64.364545 0 35.507944 28.754272 64.364545 64.364545 64.364545 35.507944 0 64.364545-28.754272 64.364545-64.364545C286.570601 221.349056 257.816329 192.594784 222.308384 192.594784zM798.417108 192.594784c-35.507944 0-64.364545 28.754272-64.364545 64.364545 0 35.507944 28.754272 64.364545 64.364545 64.364545 35.507944 0 64.364545-28.754272 64.364545-64.364545C862.679324 221.349056 833.925052 192.594784 798.417108 192.594784z"  horiz-adv-x="1024" />

    
    <glyph glyph-name="chucha" unicode="&#59019;" d="M1006.93332 849.066667l-38.399999 38.399999c0 0-72.533332 21.333333-119.466665-25.6-85.333332-85.333332-196.266664-200.533331-196.266664-200.533331L110.933332 742.400002 42.666666 678.400003l405.333328-234.666664L298.666663 302.933341l-251.73333-17.066666L0 268.800008 251.73333 128.00001l136.533332-255.999997 21.333333 46.933333 17.066666 238.93333c0 0 418.133328 426.666661 584.533326 593.066659C1045.33332 785.066668 1006.93332 849.066667 1006.93332 849.066667L1006.93332 849.066667 1006.93332 849.066667zM601.599992 285.866675l191.999997-366.933329 55.466666 59.733333L802.133323 469.333339 601.599992 285.866675 601.599992 285.866675 601.599992 285.866675z"  horiz-adv-x="1026" />

    
    <glyph glyph-name="c-invoice" unicode="&#59012;" d="M941.222 894.978h-858.443c-45.152 0-81.756-36.604-81.756-81.756v-858.443c0-45.154 36.604-81.756 81.756-81.756h858.443c45.154 0 81.756 36.602 81.756 81.756v858.443c0 45.152-36.602 81.756-81.756 81.756zM123.657 645.621h300.455v-63.361h-300.455l0 63.361zM123.657 486.196h337.246v-63.361h-337.246l0 63.361zM123.657 326.77h337.246v-63.361h-337.246l0 63.361zM534.483 103.984h-410.826v63.361h410.826v-63.361zM904.674 275.998c-6.256-88.971-59.517-136.497-161.712-142.677v-51.819h-53.142v53.201c-87.888 10.177-140.182 60.488-157.152 151.006l78.697 21.839c6.449-71.22 46.194-105.997 119.011-104.366 63.108 0 94.623 25.069 94.623 75.243 8.080 35.572-28.494 62.274-109.392 80.101-116.499 24.269-172.426 71.976-165.937 143.199 4.472 83.557 52.263 129.921 140.151 139.195l0 43.537h53.142v-43.296c83.8-8.153 133.5-53.816 149.578-137.005l-77.241-21.845c-11.336 59.848-43.56 88.976-96.961 87.379-58.247-1.631-88.148-24.271-89.736-67.96-3.262-29.124 29.696-51.803 99.291-67.958 121.353-24.274 180.007-76.876 176.782-157.772z"  horiz-adv-x="1024" />

    
    <glyph glyph-name="biaoge" unicode="&#58951;" d="M898.36767467 785.7003488L125.63123413 785.7003488c-50.80619733 0-91.9927712-41.18657387-91.9927712-91.9927712l0-619.41624747c0-50.80619733 41.18657387-91.9927712 91.9927712-91.9927712l772.73644054 0c50.80619733 0 91.9927712 41.18657387 91.9927712 91.9927712L990.36044587 693.7075776C990.36044587 744.51377493 949.173872 785.7003488 898.36767467 785.7003488zM317.28256747 65.09303573L114.899344 65.09303573l0 128.78922454 202.38322347 0L317.28256747 65.09303573zM317.28256747 282.8089344L114.899344 282.8089344l0 128.78922453 202.38322347 0L317.28256747 282.8089344zM317.28256747 497.4576416L114.899344 497.4576416l0 128.78922453 202.38322347 0L317.28256747 497.4576416zM608.5913728 65.09303573L406.20814933 65.09303573l0 128.78922454 202.38322347 0L608.5913728 65.09303573zM608.5913728 282.8089344L406.20814933 282.8089344l0 128.78922453 202.38322347 0L608.5913728 282.8089344zM608.5913728 497.4576416L406.20814933 497.4576416l0 128.78922453 202.38322347 0L608.5913728 497.4576416zM898.36767467 65.09303573L695.9844512 65.09303573l0 128.78922454 202.38322347 0L898.36767467 65.09303573zM898.36767467 282.8089344L695.9844512 282.8089344l0 128.78922453 202.38322347 0L898.36767467 282.8089344zM898.36767467 497.4576416L695.9844512 497.4576416l0 128.78922453 202.38322347 0L898.36767467 497.4576416z"  horiz-adv-x="1024" />

    
    <glyph glyph-name="xinchouchaxun" unicode="&#59111;" d="M511.6861856 861.8441536c-263.7553984 0-477.57236373-213.81696533-477.57236373-477.57236373s213.81696533-477.57236373 477.57236373-477.57236374c263.75649067 0 477.57236373 213.81696533 477.57236373 477.57236374S775.44158507 861.8441536 511.6861856 861.8441536zM654.65106667 404.56763627l0-46.56015894-113.71524267 0 0-64.16975786 113.71524267 0 0-47.15722454-113.71524267 0 0-93.41939626-58.50036907 0 0 93.41939626L364.5429408 246.68049493l0 47.15722454 117.8936064 0L482.4365472 358.00638506999996 364.5429408 358.00638506999996l0 46.56015893 100.58199467 0L342.456992 615.2835733300001l65.9609536 0c57.30514667-104.66321173 92.12375467-171.02038933 104.4634624-199.0758976l1.19413013 0c4.17836373 11.5374368 15.61865387 34.81751573 34.32305387 69.84023894l70.13931733 129.23456746 62.3785632 0L557.05330667 404.56763627 654.65106667 404.56763627z"  horiz-adv-x="1024" />

    
    <glyph glyph-name="shebei" unicode="&#59142;" d="M238.64223535 206.06800927999996c-22.57993037 0-40.88342109-18.30887666-40.8834211-40.88880792 0-22.57813477 18.30438809-40.88252285 40.8834211-40.88252284 22.58352247 0 40.8870123 18.30438809 40.88701231 40.88252284C279.53014502 187.75913174000004 261.22216573 206.06800927999996 238.64223535 206.06800927999996L238.64223535 206.06800927999996zM838.28668818-11.995456930000046L211.38721982-11.995456930000046c-7.52754112 0-13.62840557-6.09547676-13.62840557-13.62301875l0-13.62660997c0-7.52933672 6.10086445-13.62840557 13.62840557-13.62840556l626.89946836 0c7.52754112 0 13.62660997 6.09906797 13.62660997 13.62840556l0 13.62660997C851.91329815-18.090933690000043 845.8142293-11.995456930000046 838.28668818-11.995456930000046L838.28668818-11.995456930000046zM879.16921104 751.19075917L143.24788672 751.19075917c-7.52754112 0-13.62660997-6.09906797-13.62660997-13.62840555L129.62127676 301.46594912c0-7.52754112 6.09906797-13.62660997 13.62660996-13.62660996l735.92132432 0c7.52933672 0 13.62840557 6.10445567 13.62840557 13.62660996L892.79761661 737.56325185C892.79761661 745.09169122 886.69765039 751.19075917 879.16921104 751.19075917L879.16921104 751.19075917zM933.67924122 819.32919492L88.73246885 819.32919492c-15.05059365 0-27.25501553-12.19813682-27.25501552-27.25501552l0-763.16646358c0-15.05598047 12.20442188-27.25501553 27.25501552-27.25501553l844.9476706 0c15.05687872 0 27.26040234 12.19993242 27.26040235 27.25501553L960.9405418 792.07328203C960.93964355 807.13016074 948.73611992 819.32919492 933.67924122 819.32919492L933.67924122 819.32919492zM920.05263213 56.157344530000046c0-7.52754112-6.09906797-13.62660997-13.62840557-13.62660996L115.99287119 42.53073457000005c-7.52754112 0-13.63199678 6.09906797-13.63199678 13.62660996L102.36087441 764.8236542c0 7.52754112 6.10445567 13.62840557 13.63199678 13.62840557l790.43135537 0c7.52933672 0 13.62840557-6.09996622 13.62840557-13.62840557L920.05263213 56.157344530000046 920.05263213 56.157344530000046zM879.16921104 260.57893681999997L143.24788672 260.57893681999997c-7.52754112 0-13.62660997-6.10445567-13.62660997-13.62840557l1e-8-163.53188701c0-7.53292881 6.09906797-13.62660997 13.62660996-13.62660997l735.92132432 0c7.52933672 0 13.62840557 6.09906797 13.62840557 13.62660997L892.79761661 246.95053125000004C892.79761661 254.47448203 886.69765039 260.57893681999997 879.16921104 260.57893681999997L879.16921104 260.57893681999997zM238.64223535 90.71454170000004c-41.12404365 0-74.46555703 33.33971778-74.46555703 74.46465967 0 41.13122607 33.34151338 74.47094385 74.46555703 74.47094384 41.12943047 0 74.47004648-33.33971778 74.47004648-74.47094384C313.11228183 124.05425947000003 279.77166582 90.71454170000004 238.64223535 90.71454170000004L238.64223535 90.71454170000004zM851.91329815 144.74063291000004c0-3.76197539-3.0499831-6.81644707-6.81554971-6.81644707L368.11253604 137.92418583999995c-3.76107715 0-6.81554971 3.05447256-6.81554971 6.81644707l0 13.62840556c0 3.76107715 3.05447256 6.81016201 6.81554971 6.81016202l476.9852124 0c3.76556661 0 6.81554971-3.0499831 6.81554971-6.81016202L851.91329815 144.74063291000004 851.91329815 144.74063291000004zM851.91329815 144.74063291000004"  horiz-adv-x="1039" />

    
    <glyph glyph-name="iconfontchaxun" unicode="&#58919;" d="M484.51553 264.45123c0 121.645524 95.776344 220.276892 213.932394 220.276892 69.040423 0 130.428561-33.68417 169.544441-85.950558L867.992365 688.375266c0 55.54506-44.920072 100.570533-100.32187 100.570533L165.73416 788.945799c-55.406914 0-100.322893-45.025473-100.322893-100.570533L65.411267 185.49497c0-55.536874 44.915979-100.567463 100.322893-100.567463l408.696216 0C520.006859 124.865101 484.51553 190.390467 484.51553 264.45123zM325.052702 408.967648 171.956885 408.967648c-12.08013 0-21.8701 9.405207-21.8701 20.99722s9.78997 20.990057 21.8701 20.990057l153.095817 0c12.08013 0 21.8701-9.399067 21.8701-20.990057S337.132832 408.967648 325.052702 408.967648zM412.890236 549.778674 168.834778 549.778674c-10.374278 0-18.776645 9.398044-18.776645 20.989033s8.401344 20.990057 18.776645 20.990057l244.055458 0c10.367115 0 18.775622-9.398044 18.775622-20.990057S423.258375 549.778674 412.890236 549.778674zM948.555216 24.645562l-101.662401 104.691387c29.614481 34.896788 47.710628 80.438007 47.710628 130.439818 0 109.600187-86.291318 198.465121-192.747909 198.465121-106.455567 0-192.748932-88.864934-192.748932-198.465121 0-109.617583 86.293365-198.482517 192.748932-198.482517 38.056758 0 73.42836 11.518335 103.31197 31.111578 0.252757-0.286526 0.333598-0.656963 0.605797-0.942465l103.849206-106.910938c10.745738-11.083429 28.185946-11.083429 38.932708 0C959.319373-4.382565 959.319373 13.562133 948.555216 24.645562z"  horiz-adv-x="1024" />

    
    <glyph glyph-name="icon" unicode="&#58887;" d="M47.381124 12.91131c-16.966417 23.038716-36.691667 66.896596-42.595121 94.716198-21.212114 99.95348 40.375569 203.046462 155.827021 260.84075 47.744397 23.902386 119.817899 42.934858 162.582889 42.934858 19.518542 0 16.268522 5.2864-4.986571 8.105608-27.072589 3.591805-63.631226 23.3805-87.553055 47.393403-34.032094 34.163077-49.644677 73.584925-49.717332 125.536135-0.073678 53.541427 14.412244 89.364307 51.114145 126.400828 34.525328 34.841529 73.713862 50.830689 124.761492 50.90846 97.648994 0.143263 171.153078-68.167542 178.019463-165.445076 3.479241-49.311079-14.705933-100.710726-47.831378-135.182842-25.705452-26.754341-72.003917-50.891064-97.613178-50.891064-5.569856 0-10.933003-1.309832-11.922541-2.910283-0.986467-1.599428 11.613502-3.860934 27.998681-5.024433 35.078936-2.490727 84.422761-14.397918 121.971959-29.434379 45.857421-18.362206 78.776158-40.041972 114.278743-75.267241 26.868951-26.65815 35.235502-37.585013 47.035246-61.436234 7.892761-15.957437 16.658402-38.165228 19.478633-49.356105 6.039553-23.974018 6.659677-65.819055 1.352811-91.273796-4.719488-22.638603-25.872251-68.623937-41.044812-89.229231l-11.498892-15.625886-299.484885-0.134053-299.487955-0.13303L47.381124 12.91131zM759.854994 42.776502c7.339152 17.046235 11.718903 32.885991 13.665231 49.438992l2.213411 18.827811 124.110669 0 124.111692 0 0-35.760458 0-35.758412-133.154649-0.933255C773.507946 37.770488 757.914806 38.269861 759.854994 42.776502zM766.767428 196.69301c-1.196245 11.434423-5.169743 27.565822-8.826016 35.837206l-6.656607 15.039531 136.337131 0 136.334062 0 0-35.83823 0-35.83823L896.448976 175.893288 768.94093 175.893288 766.767428 196.69301zM707.723683 326.92612c-7.170307 9.856485-19.799952 25.216311-28.059056 34.131355l-15.026228 16.21224 179.658799 0 179.658799 0 0-34.131355 0-34.132378L872.360348 309.005982 720.762651 309.005982 707.723683 326.92612 707.723683 326.92612zM551.229466 434.205449c-15.019065 4.723581-27.90556 9.16166-28.635177 9.866718-0.729617 0.704035 8.100492 11.361769 19.627013 23.682375s20.956288 23.88192 20.956288 25.690102c0 2.076288 84.902692 3.287883 230.390227 3.287883l230.391251 0 0-35.83823 0-35.83823-222.711338 0.283456-222.711338 0.281409L551.229466 434.205449 551.229466 434.205449zM586.90192 566.267207c1.693572 4.453429 4.903683 20.578688 7.133468 35.83823l4.060479 27.741831 212.930577 0 212.9316 0 0-35.83823 0-35.83823L803.892977 558.170808l-220.072231 0L586.90192 566.267207z"  horiz-adv-x="1040" />

    
    <glyph glyph-name="weibiaoti3" unicode="&#58930;" d="M797.145358 741.041918 227.035183 741.041918c-55.465512 0-100.522191-45.013778-100.522191-100.34165l0-588.434225c0-55.374348 45.056679-100.386339 100.522191-100.386339l570.110174 0c55.374348 0 100.345225 45.013778 100.345225 100.386339L897.490583 640.700268C897.490583 696.02814 852.517918 741.041918 797.145358 741.041918zM731.821574 640.476826c23.161128 0 41.892737-18.776298 41.892737-42.030378 0-23.071751-18.731609-41.846261-41.892737-41.846261-23.162916 0-41.89095 18.772723-41.89095 41.846261C689.930625 621.698741 708.658659 640.476826 731.821574 640.476826zM237.617408 633.278411l73.108511 0 292.158763 0 0-69.488747L310.727706 563.789664 237.617408 563.789664 237.617408 633.278411zM790.359864 421.061916 233.638348 421.061916c-19.182069 0-34.744373 15.56588-34.744373 34.744373 0 19.182069 15.562305 34.746161 34.744373 34.746161L790.359864 490.55245c19.178494 0 34.742586-15.562305 34.742586-34.746161C825.100662 436.627796 809.538358 421.061916 790.359864 421.061916z"  horiz-adv-x="1024" />

    
    <glyph glyph-name="icon09" unicode="&#59186;" d="M748.32802702 187.60903907c-109.47517099 39.93648469-144.48901575 73.56598272-144.48901575 145.65563962 0 43.29198251 33.40478919 29.15976989 48.11565739 108.40634822 6.07761977 32.8692133 35.64605781 0.53441195 41.27542385 75.57555656 0 29.87581099-16.09637888 37.29702798-16.09637888 37.29702798s8.18266567 44.27581213 11.35769828 78.35239993c4.0226395 42.44088377-24.50608242 152.09768391-176.47336562 152.09768391-152.00104789 0-180.53209771-109.65680128-176.5490449-152.09768391 3.21578325-34.07658781 11.44851342-78.35239993 11.44851342-78.35239993s-16.14760846-7.42238094-16.14760846-37.29702798c5.63285902-75.04114461 35.19431111-42.70634211 41.27891683-75.57555656 14.66662457-79.24657835 48.11682133-65.11436459 48.11682133-108.40634822 0-72.08965689-35.01384477-105.71915491-144.54140928-145.65563962-109.82911659-40.02497081-181.20855325-80.85446997-181.20855324-108.67064262 0-27.86041629 0-93.51268579 0-93.5126858l417.60119922 0 417.56510663 0c0 0 0 65.65226951 0 93.5126858C929.58198898 106.75456910000003 858.20837319 147.58406827 748.32802702 187.60903907L748.32802702 187.60903907z"  horiz-adv-x="1024" />

    
    <glyph glyph-name="yusuan" unicode="&#58929;" d="M971.1794656 452.7531648L634.7284288 452.7531648C624.3932064 452.7531648 616.02329813 443.24808747 616.02329813 431.5310816L616.02329813 7.187592529999961C616.02329813-4.529411200000027 624.3932064-14.034493870000006 634.7284288-14.034493870000006L971.1794656-14.034493870000006C981.51468373-14.034493870000006 989.88335787-4.529411200000027 989.88335787 7.187592529999961L989.88335787 431.5310816C989.88335787 443.24808747 981.51468373 452.7531648 971.1794656 452.7531648L971.1794656 452.7531648ZM727.15261973 41.89249493C727.15261973 33.478471470000045 720.83218453 26.664987730000007 713.02167253 26.664987730000007L670.6053056 26.664987730000007C662.79478613 26.664987730000007 656.4632096 33.478471470000045 656.4632096 41.89249493L656.4632096 72.34875412999997C656.4632096 80.76278400000001 662.79478613 87.58745066999995 670.6053056 87.58745066999995L713.02167253 87.58745066999995C720.83218453 87.58745066999995 727.15261973 80.76278400000001 727.15261973 72.34875412999997L727.15261973 41.89249493 727.15261973 41.89249493ZM727.15261973 133.22026987000004C727.15261973 124.84849707000001 720.83218453 118.06483839999999 713.02167253 118.06483839999999L670.6053056 118.06483839999999C662.79478613 118.06483839999999 656.4632096 124.84849707000001 656.4632096 133.22026987000004L656.4632096 163.52120106999996C656.4632096 171.9041568 662.79478613 178.68658027000004 670.6053056 178.68658027000004L713.02167253 178.68658027000004C720.83218453 178.68658027000004 727.15261973 171.9041568 727.15261973 163.52120106999996L727.15261973 133.22026987000004 727.15261973 133.22026987000004ZM727.15261973 224.40265707000003C727.15261973 215.97868692999998 720.83218453 209.16396053000005 713.02167253 209.16396053000005L670.6053056 209.16396053000005C662.79478613 209.16396053000005 656.4632096 215.97868692999998 656.4632096 224.40265707000003L656.4632096 254.84897707000005C656.4632096 263.26300160000005 662.79478613 270.0876704 670.6053056 270.0876704L713.02167253 270.0876704C720.83218453 270.0876704 727.15261973 263.26300160000005 727.15261973 254.84897707000005L727.15261973 224.40265707000003 727.15261973 224.40265707000003ZM838.31412053 41.89249493C838.31412053 33.478471470000045 831.982544 26.664987730000007 824.172032 26.664987730000007L781.75566507 26.664987730000007C773.94515307 26.664987730000007 767.61357653 33.478471470000045 767.61357653 41.89249493L767.61357653 72.34875412999997C767.61357653 80.76278400000001 773.94515307 87.58745066999995 781.75566507 87.58745066999995L824.172032 87.58745066999995C831.99244267 87.58745066999995 838.31412053 80.76278400000001 838.31412053 72.34875412999997L838.31412053 41.89249493 838.31412053 41.89249493ZM838.31412053 133.22026987000004C838.31412053 124.84849707000001 831.982544 118.06483839999999 824.172032 118.06483839999999L781.75566507 118.06483839999999C773.94515307 118.06483839999999 767.61357653 124.84849707000001 767.61357653 133.22026987000004L767.61357653 163.52120106999996C767.61357653 171.9041568 773.94515307 178.68658027000004 781.75566507 178.68658027000004L824.172032 178.68658027000004C831.99244267 178.68658027000004 838.31412053 171.9041568 838.31412053 163.52120106999996L838.31412053 133.22026987000004 838.31412053 133.22026987000004ZM838.31412053 224.40265707000003C838.31412053 215.97868692999998 831.982544 209.16396053000005 824.172032 209.16396053000005L781.75566507 209.16396053000005C773.94515307 209.16396053000005 767.61357653 215.97868692999998 767.61357653 224.40265707000003L767.61357653 254.84897707000005C767.61357653 263.26300160000005 773.94515307 270.0876704 781.75566507 270.0876704L824.172032 270.0876704C831.99244267 270.0876704 838.31412053 263.26300160000005 838.31412053 254.84897707000005L838.31412053 224.40265707000003 838.31412053 224.40265707000003ZM949.46448 41.89249493C949.46448 33.478471470000045 943.13290453 26.664987730000007 935.32239147 26.664987730000007L892.89612587 26.664987730000007C885.08561387 26.664987730000007 878.75403093 33.478471470000045 878.75403093 41.89249493L878.75403093 72.34875412999997C878.75403093 80.76278400000001 885.08561387 87.58745066999995 892.89612587 87.58745066999995L935.32239147 87.58745066999995C943.13290453 87.58745066999995 949.46448 80.76278400000001 949.46448 72.34875412999997L949.46448 41.89249493 949.46448 41.89249493ZM949.46448 133.22026987000004C949.46448 124.84849707000001 943.13290453 118.06483839999999 935.32239147 118.06483839999999L892.89612587 118.06483839999999C885.08561387 118.06483839999999 878.75403093 124.84849707000001 878.75403093 133.22026987000004L878.75403093 163.52120106999996C878.75403093 171.9041568 885.08561387 178.68658027000004 892.89612587 178.68658027000004L935.32239147 178.68658027000004C943.13290453 178.68658027000004 949.46448 171.9041568 949.46448 163.52120106999996L949.46448 133.22026987000004 949.46448 133.22026987000004ZM949.46448 224.40265707000003C949.46448 215.97868692999998 943.13290453 209.16396053000005 935.32239147 209.16396053000005L892.89612587 209.16396053000005C885.08561387 209.16396053000005 878.75403093 215.97868692999998 878.75403093 224.40265707000003L878.75403093 254.84897707000005C878.75403093 263.26300160000005 885.08561387 270.0876704 892.89612587 270.0876704L935.32239147 270.0876704C943.13290453 270.0876704 949.46448 263.26300160000005 949.46448 254.84897707000005L949.46448 224.40265707000003 949.46448 224.40265707000003ZM949.49541867 320.8414784C949.49541867 309.63271893 940.45349227 300.5339904 929.29155093 300.5339904L676.67821867 300.5339904C665.526176 300.5339904 656.47311573 309.63271893 656.47311573 320.8414784L656.47311573 401.9993568C656.47311573 413.2081152 665.526176 422.3068448 676.67821867 422.3068448L929.29155093 422.3068448C940.45349227 422.3068448 949.49541867 413.21805653 949.49541867 401.9993568L949.49541867 320.8414784ZM329.78800533 791.81440107C308.65222187 791.3061536 265.8955136 788.4070368 254.050416 784.0241888 242.1941792 779.64009707 222.24773227 765.24268267 240.95286293 735.82528213 259.65675733 706.3979392 318.8847232 621.2710176 318.8847232 621.2710176L536.45780267 621.2710176C536.45780267 621.2710176 611.90579307 729.56105173 616.88219413 740.83194453 621.86849707 752.09289493 629.968608 777.7711424 600.68073387 783.40037547 571.37305707 789.03085013 552.04788693 795.8244522699999 535.826624 792.74887787 519.62516373 789.6646058700001 495.3966112 770.53018453 432.96201493 767.86095893 371.8838336 765.24268267 362.21072853 792.56248 329.78800533 791.81440107ZM586.8492832 518.7767328C557.11710933 545.1608096 537.33650027 558.59268053 537.33650027 558.59268053L313.82540267 558.59268053C313.82540267 558.59268053 138.94715093 442.15827733 44.50442987 203.65899733000003 22.49984853 148.07498026999997 37.89439253 74.01142933000006 68.81714027 35.58725652999999 123.98824427-32.97008960000005 194.57493013-25.439593599999967 201.5995648-25.439593599999967L586.8393824-25.439593599999967 586.8393824 518.7767328 586.8492832 518.7767328ZM446.39124587 104.52982399999996L446.39124587 57.17343573000005 406.91294827 57.17343573000005 406.91294827 104.3223008C355.27891413 109.62968533000003 323.32276693 139.81629120000002 310.9801536 194.71435732999998L372.03853333 210.73219627000003C377.667152 176.18386986999997 396.39208533 158.89851733 428.22447147 158.89851733 443.08065707 158.89851733 454.06685973 162.55441599999995 461.0506528 169.98176747000002 468.03320853 177.4091264 471.57151573 186.26926613 471.57151573 196.75107306999996 471.57151573 207.58579199999997 468.03320853 215.83329920000006 461.0506528 221.33826880000004 454.06685973 226.93767892999995 438.4656352 234.02205866999998 414.31010133 242.60135573000002 392.60501973 250.16416319999996 375.63872 257.59151893 363.4310048 265.081008 351.2133888 272.43504747 341.30266347 282.72921173 333.69883093 296.01444906999996 326.04301867 309.3630624 322.23615147 324.8813536 322.23615147 342.54074132999995 322.23615147 365.70509546999995 329.09494827 386.61527253 342.65783893 405.14700373 356.29251093 423.67873707 377.66591467 434.9906368 406.9030464 439.13489493L406.9030464 475.70999573 446.40114667 475.70999573 446.40114667 439.13489493C490.49322773 433.8163264 519.11898453 408.7618912 532.15341867 363.9293408L477.66423467 341.51182186999995C467.08149227 372.23898240000005 450.7253312 387.633008 428.4831296 387.633008 417.36202987 387.633008 408.39188373 384.2256448 401.68902613 377.35002772999997 394.90201173 370.46322667000004 391.50850347 362.15234239999995 391.50850347 352.34654187 391.50850347 342.3953504 394.76711253 334.77041173 401.2843296 329.40089387 407.79164587 324.0711424 421.70725333 317.46518187000004 443.06951893 309.64390292999997 466.4713536 301.05217813 484.9264896 292.87798507 498.23072107 285.25304746999996 511.59683307 277.61816747 522.18081387 266.9810304 530.1980064 253.56034239999997 538.1223776 240.08746347 542.12602453 224.34052053000005 542.12602453 206.28721707 542.12602453 178.63438293000002 533.92319147 155.61666560000003 517.49401173 137.14706452999997 501.0759712 118.69859199999996 477.40557547 107.80173652999997 446.39124587 104.52982399999996Z"  horiz-adv-x="1024" />

    
    <glyph glyph-name="chaxun" unicode="&#58973;" d="M347.00367303 571.55573534c-70.75653859-70.82406798-70.75653859-185.65965369 0-256.48721466 70.75770368-70.82523193 185.47685945-70.82523193 256.23456199 0 70.75770368 70.82756096 70.75770368 185.66431061 0 256.48721466C532.47936739 642.38213121 417.76021163 642.38213121 347.00367303 571.55573534zM525.00110109 855.73104982c-254.08760263 0-460.06886173-205.98009515-460.06886173-460.07002567 0-254.08876658 205.98125909-460.06886173 460.06886173-460.06886172 254.08993053 0 460.07002567 205.98009515 460.07002566 460.06886172C985.07112675 649.75095468 779.09103161 855.73104982 525.00110109 855.73104982zM778.57757753 139.68959261999998c-10.6043995-10.61138546-27.79754382-10.61138546-38.40310841 0l-120.19599929 120.31825123c-91.44955449-72.70556899-224.83934663-66.75718485-309.40093098 17.87658581-90.97801501 91.05020131-90.97801501 238.67233621 0 329.72020851 90.97335808 91.0513664 238.46974805 91.0513664 329.44776419 0 84.38344818-84.45912747 90.47736889-217.59277397 18.30271773-309.10170795l120.25072184-120.37297266C789.18314098 167.51508026 789.18314098 150.30330596 778.57757753 139.68959261999998z"  horiz-adv-x="1024" />

    
    <glyph glyph-name="jijin" unicode="&#58915;" d="M907.952984 618.124272 116.352985 618.124272c-28.103058 0-51.056839-22.8668-51.056839-51.14382l0-497.739205c0-28.365025 22.8668-51.14382 51.056839-51.14382l791.511995 0c28.103058 0 51.056839 22.8668 51.056839 51.14382L958.921819 566.980451C959.009823 595.345476 936.143023 618.124272 907.952984 618.124272M263.065418 464.953753l-101.939717 0c-17.717524 0-32.030507 14.139022-32.030507 31.943526 0 17.629519 14.312984 31.943526 32.030507 31.943526l101.939717 0c17.717524 0 32.030507-14.139022 32.030507-31.943526C295.095925 479.266737 280.782941 464.953753 263.065418 464.953753M518.5246 107.467873c-95.218642 0-172.371836 94.345762-172.371836 210.685443s77.152171 210.685443 172.371836 210.685443c95.218642 0 172.371836-94.345762 172.371836-210.685443S613.743242 107.467873 518.5246 107.467873M863.180268 107.467873l-101.938694 0c-17.717524 0-32.030507 14.139022-32.030507 31.943526 0 17.629519 14.312984 31.943526 32.030507 31.943526l101.938694 0c17.717524 0 32.030507-14.139022 32.030507-31.943526C895.210775 121.78188 880.896768 107.467873 863.180268 107.467873M199.35335 656.438902l638.341476 0c24.699542 0 44.685735 19.986193 44.685735 44.685735 0 24.611537-19.986193 44.685735-44.685735 44.685735L199.35335 745.810373c-24.699542 0-44.685735-19.986193-44.685735-44.685735C154.667615 676.512077 174.653809 656.438902 199.35335 656.438902M595.240843 350.009861c10.56052 0 19.026332 8.552793 19.026332 19.113313 0 10.647501-8.552793 19.113313-19.026332 19.113313l-30.197766 0 22.8668 22.8668c7.505951 7.505951 7.505951 19.637246-0.086981 27.318182-7.505951 7.505951-19.812231 7.505951-27.318182 0.086981l-34.736129-34.736129c-0.435928-0.435928-0.785899-0.87288-1.221828-1.308809-0.523933 0.785899-1.134847 1.483794-1.832741 2.181689l-34.212196 34.212196c-7.330966 7.330966-19.37528 7.330966-26.794249-0.086981-7.505951-7.505951-7.41897-19.37528-0.086981-26.794249l23.651676-23.651676-43.463907 0c-10.56052 0-19.026332-8.552793-19.026332-19.113313 0-10.647501 8.552793-19.113313 19.026332-19.113313l57.514925 0 0-38.314631-57.514925 0c-10.56052 0-19.113313-8.552793-19.113313-19.113313 0-10.647501 8.552793-19.113313 19.026332-19.113313l57.515948 0 0-10.909467 0-46.518476c0-10.735505 8.552793-19.288299 19.113313-19.288299 10.647501 0 19.113313 8.552793 19.113313 19.113313L537.463951 273.468604l57.515948 0c10.56052 0 19.026332 8.552793 19.026332 19.113313 0 10.647501-8.552793 19.113313-19.026332 19.113313l-37.005822 0-20.597107 0 0 38.314631L595.240843 350.009861z"  horiz-adv-x="1024" />

    
    <glyph glyph-name="huiyi" unicode="&#58890;" d="M978.944 47.4112c-8.6016 39.7824-41.6256 66.3808-82.7136 66.6368-11.2384 0.0768-22.5024 0-33.7664 0a125.696 125.696 0 0 1 76.4416 115.7376c0.1024 69.4016-55.8848 125.824-124.9792 125.9008-68.9408 0.1024-125.2608-56.3456-125.3888-125.6448a125.5424 125.5424 0 0 1 76.5184-115.8656c-12.0832 0.0256-24.1408 0-36.224-0.2816-38.9888-0.896-71.2448-26.7776-79.616-64.7424-2.6368-12.0064-1.9968-22.9376-2.5344-35.3792-0.3328-7.7568-0.0768-21.8112-0.0768-21.8112h-7.1936c0 17.3824 0.1024 24.96-0.0256 38.1184-0.4608 49.3312-36.6592 84.7104-85.6576 84.8384-10.4704 0.0256-20.9408-0.1024-31.3856-0.128a125.6448 125.6448 0 0 1 75.0848 115.0208c0.0256 69.3504-56.1152 125.824-125.1072 125.9008-69.0688 0.0512-125.056-56.1664-125.2096-125.696a125.3376 125.3376 0 0 1 75.8016-115.6096c-10.7008-0.0768-21.4016-0.0256-32.128-0.128-9.8304-0.0768-20.1216-1.792-29.4144-4.9664-34.3808-11.6992-55.8336-42.7776-56.2688-79.7184-0.1536-13.568-0.0256-27.1872-0.0256-40.3712l0.8448-12.0832c-100.1216 15.1296-177.2032 101.632-177.2032 206.08v34.7648c0 113.792 91.4432 206.464 204.5952 208.4864 222.5408-0.128 415.0272 0.1792 639.6928 0.1792h7.6288c0.1024 0 0.2048 2.6624 0.2048 3.7632 0 40.576 0.0768 80.9728-0.0768 121.5488a83.4048 83.4048 0 0 1-1.8432 17.0752c-8.6016 39.7824-41.6256 66.3808-82.7136 66.6368-11.2384 0.0768-22.5024 0-33.7664 0a125.696 125.696 0 0 1 76.4416 115.7376C938.9824 820.8128 882.9952 877.2352 813.9008 877.312 744.96 877.4144 688.64 820.9664 688.512 751.6672a125.5424 125.5424 0 0 1 76.5184-115.8656c-12.0832 0.0256-24.1408 0-36.224-0.2816-38.9888-0.896-71.2448-26.7776-79.616-64.7424-2.6368-12.0064-1.9968-22.9632-2.5344-35.3792-0.3328-7.7568-0.0768-21.8112-0.0768-21.8112h-7.1936c0 17.3824 0.1024 24.9344-0.0256 38.1184-0.4608 49.3312-36.6592 84.7104-85.6576 84.8384-10.4704 0.0256-20.9408-0.128-31.3856-0.128a125.6448 125.6448 0 0 1 75.0848 115.0208c0.0256 69.3504-56.1152 125.824-125.1072 125.9008-69.0688 0.0512-125.056-56.1664-125.2096-125.6704a125.3376 125.3376 0 0 1 75.8016-115.6096c-10.7008-0.0768-21.4016-0.0512-32.128-0.128-9.8304-0.0768-20.1216-1.792-29.4144-4.9664-34.3808-11.6992-55.8336-42.7776-56.2688-79.7184-0.1536-13.568-0.0256-27.1872-0.0256-40.3712l1.152-16.4864c-138.6752-15.4112-246.9376-133.4528-246.9376-276.4032v-34.7648c0-141.6704 106.3424-258.7392 243.2256-275.84l-0.1536-2.3552v-0.1792c243.0208-0.1536 438.4256 0.1792 670.6944 0.1792H980.6592c0.1024 0 0.2048 2.6624 0.2048 3.7632 0 40.576 0.0768 80.9728-0.0768 121.5744a83.1744 83.1744 0 0 1-1.8432 17.0496z"  horiz-adv-x="1024" />

    
    <glyph glyph-name="icon-approve-bold" unicode="&#58922;" d="M422.399 294.4v108.277c-79.111 34.622-134.4 113.655-134.4 205.323 0 123.711 100.54 224 224 224 123.711 0 224-100.545 224-224 0-91.814-55.379-170.725-134.4-205.313v-108.287h201.472c61.925 0 112.128-49.716 112.128-112.003v-111.997h-806.398v112.002c0 61.855 50.444 111.998 112.126 111.998h201.472zM153.601 25.6h716.793v-89.6h-716.793v89.6z"  horiz-adv-x="1024" />

    
    <glyph glyph-name="xinxidengji" unicode="&#58937;" d="M1013.511833 562.215938l-57.925271 57.82294c-16.021905 16.021905-44.574195 13.45443-63.779605-5.854335L456.030989 178.408575c-19.308765-19.205411-21.87624-47.7577-5.854335-63.779605l57.82294-57.925271c16.021905-15.919575 44.574195-13.352099 63.881936 5.956665l435.673637 435.673637C1026.862909 517.641743 1029.533738 546.194032 1013.511833 562.215938zM551.956735 2.98831l2.053776-1.74576-181.273577-95.721085 366.758058 0c27.319206 0 49.297776 22.081924 49.297776 49.297776L788.792768 235.204116 564.691781 12.129504C560.68656 8.226614 556.269971 5.967154 551.956735 2.98831L551.956735 2.98831zM392.969744 139.3807c3.594875 9.55154 8.627495 18.897396 16.741289 26.90886l379.082758 377.336998L788.793792 817.539021c0 27.216875-22.081924 49.297776-49.297776 49.297776L49.319987 866.836797c-27.216875 0-49.297776-22.081924-49.297776-49.297776l0-862.616426c0-27.319206 22.081924-49.297776 49.297776-49.297776L293.141108-94.375182l97.569176 235.809657L392.969744 139.3807 392.969744 139.3807zM123.267163 792.890644l517.631254 0c27.319206 0 49.297776-13.556761 49.297776-30.400381s-22.081924-30.29805-49.297776-30.29805L123.267163 732.192214c-27.216875 0-49.297776 13.556761-49.297776 30.29805C73.969387 779.33286 96.050288 792.890644 123.267163 792.890644zM123.267163 630.514463l517.631254 0c27.319206 0 49.297776-14.276145 49.297776-31.838126s-22.081924-31.838126-49.297776-31.838126L123.267163 566.838212c-27.216875 0-49.297776 14.276145-49.297776 31.838126S96.050288 630.514463 123.267163 630.514463zM123.267163 398.710027c-27.216875 0-49.297776 14.789844-49.297776 32.865525 0 18.075681 22.081924 32.865525 49.297776 32.865525l320.438103 0c27.216875 0 49.297776-14.686491 49.297776-32.865525s-22.081924-32.865525-49.297776-32.865525C443.706289 398.710027 123.267163 398.710027 123.267163 398.710027zM401.802924 111.136426l-93.050256-214.550471 207.155037 105.58064L401.802924 111.136426z"  horiz-adv-x="1024" />

    
    <glyph glyph-name="jiesuanbaobiao" unicode="&#59010;" d="M832 377.6v326.4c0 70.4-51.2 128-121.6 128h-646.4v-768c0-70.4 51.2-128 121.6-128h582.4c6.4 0 25.6 0 64 12.8 70.4 25.6 64 76.8 64 96v236.8c0 19.2 0 70.4-64 96zM416 160h-192c-19.2 0-32 12.8-32 32s12.8 32 32 32h192c19.2 0 32-12.8 32-32s-12.8-32-32-32zM192 384c0 19.2 12.8 32 32 32h352c19.2 0 32-12.8 32-32s-12.8-32-32-32h-352c-19.2 0-32 12.8-32 32zM640 32c0-12.8-25.6-25.6-64-25.6s-64 12.8-64 25.6v57.6c12.8-12.8 32-19.2 64-19.2s64 19.2 64 19.2v-57.6zM576 128c-38.4 0-64 12.8-64 32s25.6 32 64 32 64-12.8 64-32-25.6-32-64-32zM672 544h-448c-19.2 0-32 12.8-32 32s12.8 32 32 32h448c19.2 0 32-12.8 32-32s-12.8-32-32-32zM768 326.4c38.4 0 64-12.8 64-32s-25.6-32-64-32-64 12.8-64 32 25.6 32 64 32zM832 153.6c0-6.4-25.6-25.6-64-25.6s-64 12.8-64 25.6v57.6c12.8-12.8 32-19.2 64-19.2s64 19.2 64 19.2v-57.6zM832 32c0-6.4-25.6-25.6-64-25.6s-64 12.8-64 25.6v57.6c12.8-12.8 32-19.2 64-19.2s64 19.2 64 19.2v-57.6z"  horiz-adv-x="1024" />

    
    <glyph glyph-name="laba" unicode="&#58931;" d="M718.347 528.231c-63.679 147.474-165.907 259.754-217.857 239.644-87.143-35.191 51.95-207.805-378.738-382.089-36.868-15.084-46.923-75.413-31.841-112.281 15.084-36.868 67.033-72.061 103.901-56.979 6.703 3.351 30.163 10.054 30.163 10.054 26.815-35.191 53.627-15.084 63.679-36.868 11.73-26.815 36.868-87.143 46.923-107.253 8.38-20.11 28.487-38.544 43.571-33.516 15.084 5.028 63.679 23.462 82.117 31.841 18.433 6.703 23.462 23.462 16.759 36.868-6.703 13.405-31.841 18.433-38.544 35.191-6.703 16.759-30.163 70.385-36.868 87.143-8.38 23.462 10.054 41.897 38.544 43.571 196.073 20.11 232.94-100.55 299.973-73.734 51.95 21.787 40.22 170.935-21.787 318.41zM694.886 288.587c-11.73-5.028-88.818 56.979-137.42 170.935-48.599 115.633-43.571 219.534-31.841 224.562 11.73 5.028 87.143-68.708 135.744-184.34 50.275-113.957 45.248-206.128 33.516-211.153zM785.382 653.917c-8.38 3.351-16.759-1.676-18.433-8.38-3.351-8.38 1.676-16.759 8.38-18.433 3.351-1.676 10.054-5.028 20.11-11.73 15.084-11.73 28.487-26.815 38.544-46.923 10.054-20.11 15.084-40.22 15.084-58.655 0-11.73-1.676-18.433-1.676-23.462-1.676-8.38 1.676-16.759 10.054-18.433 8.38-1.676 16.759 1.676 18.433 10.054 1.676 6.703 3.351 16.759 3.351 31.841 0 23.462-5.028 46.923-18.433 72.061-14.401 30.654-38.196 54.907-67.63 69.508 8.974-4.15-1.081 0.876-7.783 2.553zM859.119 712.573c-20.11 13.405-36.868 20.11-48.599 21.787-8.38 1.676-16.759-3.351-18.433-10.054-1.676-8.38 3.351-16.759 10.054-18.433 1.676 0 5.028-1.676 11.73-3.351 8.38-3.351 18.433-8.38 28.487-15.084 28.487-18.433 53.627-43.571 70.385-78.764 18.433-35.191 23.462-70.385 21.787-103.901 0-11.73-3.351-23.462-5.028-31.841-1.676-5.028-1.676-10.054-3.351-11.73-3.351-8.38 0-16.759 8.38-18.433 8.38-3.351 16.759 0 18.433 8.38 3.351 10.054 8.38 28.487 10.054 51.95 3.351 38.544-5.028 78.764-25.139 118.982-18.433 40.22-46.923 68.708-78.764 90.494z"  horiz-adv-x="1024" />

    
    <glyph glyph-name="dangan" unicode="&#58885;" d="M675.521 589.36V751.066c0 1.067-0.23 2.079-0.289 3.15v7.312h-0.578c-4.104 35.692-28.498 63.236-58.266 63.236H408.183c-29.769 0-54.162-27.544-58.266-63.236h-0.867v-240.027h0.29v-65.898c-0.059-1.211-0.29-2.309-0.29-3.466V-3.12h0.867c4.104-35.724 28.497-63.237 58.266-63.237h208.206c29.768 0 54.162 27.514 58.266 63.237h0.578v5.432h0.289V525.893h-0.289v60.29c0.058 1.098 0.288 2.079 0.288 3.177zM431.42 716.645h161.732v-411.096H431.42V716.645z m125.028-676.413c-27.282-15.723-60.981-15.723-88.324 0-27.397 15.837-44.22 44.97-44.22 76.586 0 31.563 16.823 60.753 44.22 76.534 27.343 15.778 61.042 15.778 88.324 0 27.399-15.781 44.22-44.972 44.22-76.534 0-31.616-16.82-60.749-44.22-76.586zM532.862 152.484c-12.717 7.399-28.438 7.399-41.212 0a41.17 41.17 0 0 1-20.578-35.666c0-22.773 18.438-41.211 41.214-41.211 22.771 0 41.215 18.438 41.215 41.211a41.096 41.096 0 0 1-20.639 35.666zM863.15 152.484a41.038 41.038 0 0 1-41.215 0c-12.772-7.34-20.577-20.924-20.577-35.666 0-14.737 7.805-28.322 20.577-35.662a41.038 41.038 0 0 1 41.215 0 41.102 41.102 0 0 1 20.637 35.662 41.098 41.098 0 0 1-20.637 35.666zM1005.751 589.36V751.066c0 1.067-0.231 2.079-0.231 3.15v7.312h-0.577c-4.163 35.692-28.499 63.236-58.266 63.236H738.411c-29.769 0-54.102-27.544-58.208-63.236h-0.865v-240.027h0.287v-65.898c-0.057-1.211-0.287-2.309-0.287-3.466V-3.12h0.865c4.106-35.724 28.439-63.237 58.208-63.237h208.266c29.767 0 54.103 27.514 58.266 63.237h0.577v5.432h0.231V525.893h-0.231v60.29c0 1.098 0.231 2.079 0.231 3.177zM761.705 716.645h161.734v-411.096H761.705V716.645z m125.03-676.413c-27.343-15.723-61.041-15.723-88.382 0a88.447 88.447 0 0 0-44.161 76.586c0 31.563 16.82 60.753 44.161 76.534 27.341 15.778 61.039 15.778 88.382 0 27.341-15.781 44.22-44.972 44.22-76.534 0-31.616-16.879-60.749-44.22-76.586zM182.75 157.803c-22.659 0-40.982-18.382-40.982-40.984 0-22.599 18.324-40.98 40.982-40.98 22.602 0 40.925 18.382 40.925 40.98 0 22.602-18.323 40.984-40.925 40.984zM345.929 589.36V751.066c0 1.067-0.232 2.079-0.289 3.15v7.312h-0.578c-4.104 35.692-28.439 63.236-58.208 63.236H78.59c-29.769 0-54.104-27.544-58.266-63.236h-0.809v-240.027h0.23v-65.898c0-1.211-0.23-2.309-0.23-3.466V-3.12h0.809c4.163-35.724 28.498-63.237 58.266-63.237h208.264c29.769 0 54.104 27.514 58.208 63.237h0.578v5.432h0.289V525.893h-0.289v60.29c0.057 1.098 0.289 2.079 0.289 3.177zM101.826 716.645h161.733v-411.096H101.826V716.645z m80.924-688.206c-48.843 0-88.381 39.537-88.381 88.379 0 48.787 39.538 88.383 88.381 88.383 48.786 0 88.323-39.596 88.323-88.383 0-48.841-39.536-88.379-88.323-88.379z"  horiz-adv-x="1024" />

    
    <glyph glyph-name="qingjia" unicode="&#58938;" d="M398.412 178.561c0 31.587 4.918 62.007 14.239 90.619 9.321 29.127 23.043 55.406 39.743 79.614 17.346 24.337 37.283 45.568 60.843 64.338 22.914 18.899 49.063 33.53 77.025 44.921 1.942 4.272 3.107 8.544 5.696 15.276l4.272 11.651c0.647 3.625 1.942 7.249 3.107 10.227 5.696 1.942 10.615 4.918 15.405 9.191 4.272 3.625 8.026 9.191 11.78 15.793 3.107 6.732 5.696 16.441 6.861 27.962 0.647 8.544 0.647 15.793-0.647 21.878-1.812 6.083-3.107 10.874-5.696 14.628-2.46 4.272-5.696 7.898-9.321 10.356 0 22.525-1.942 44.403-4.272 65.633-3.107 18.899-7.378 38.836-14.239 59.549-6.213 20.714-16.829 40.13-31.069 57.089-6.213 7.249-14.887 15.276-25.374 22.525-10.615 7.249-22.914 13.981-36.506 20.065-13.723 5.438-28.48 10.356-44.015 13.981-15.405 3.625-31.069 5.567-47.121 5.567-12.428 0-25.374-1.165-39.095-3.107-13.723-1.812-27.314-5.438-41.036-10.874s-27.314-13.333-39.743-22.525c-12.428-9.191-24.208-21.36-35.341-36.506-11.133-15.793-19.936-33.53-25.374-53.465-5.696-20.065-9.321-38.836-11.78-55.924-1.942-20.714-3.107-40.778-3.107-61.361-4.918-5.567-8.026-10.874-10.615-16.959-2.46-6.083-4.272-12.816-4.918-20.065s0.647-15.793 3.107-24.985c2.46-9.709 6.213-16.441 9.968-21.36s7.378-9.191 10.615-11.651c4.272-2.46 8.026-4.272 11.78-5.567 2.46-8.544 5.696-16.959 8.026-24.985 2.46-7.249 5.696-13.981 9.321-20.714 3.107-6.732 7.378-12.169 11.78-15.793 9.321-7.898 17.994-15.276 25.374-22.525 7.378-7.249 11.78-17.734 13.074-29.775 0.647-9.191 0.647-16.441 0.647-23.69 0-6.732-1.942-13.333-4.272-20.065-3.107-6.732-7.378-13.333-13.723-20.065-6.343-6.732-14.887-13.333-26.797-20.714-9.321-6.083-20.453-10.874-32.235-15.276-11.78-4.272-24.208-7.898-36.636-11.651-13.074-3.625-25.374-7.249-37.283-10.874-11.78-4.272-22.914-9.191-32.881-15.276-9.968-6.732-18.641-13.981-25.374-22.525-6.861-8.544-11.133-19.419-13.723-32.752-5.696-35.211-6.861-63.822-3.754-86.217 3.107-22.525 7.378-35.859 13.723-40.13 3.754-2.46 11.78-5.567 24.208-7.898 12.428-2.46 27.962-5.567 45.956-7.898 18.641-3.107 38.448-5.567 60.843-7.898 22.267-2.46 44.79-4.918 67.057-6.732 23.043-1.812 44.79-2.977 65.892-4.143 21.101-1.165 39.743-1.942 55.924-1.942h21.878c-13.074 22.525-23.69 46.862-31.069 72.365-7.378 25.89-11.133 52.687-11.133 80.65zM947.686 275.782c-13.723 31.069-32.235 57.737-55.924 81.426-23.559 23.043-50.876 41.296-82.463 54.629-31.715 13.333-65.115 20.065-101.233 20.065-35.988 0-70.163-6.732-101.75-20.065-31.715-13.333-59.031-31.587-82.463-54.629-23.559-23.043-42.202-50.486-55.924-81.426-13.723-31.069-20.453-63.822-20.453-99.033s6.861-68.093 20.453-99.033c13.723-31.069 32.235-57.737 55.924-81.426 23.559-23.043 50.876-41.296 82.463-54.629 31.715-13.333 65.892-20.065 101.75-20.065 35.859 0 69.517 6.732 101.233 20.065s59.031 31.587 82.463 54.629c23.69 23.043 42.202 50.486 55.924 81.426 13.723 31.069 20.453 63.822 20.453 99.033 0 35.083-6.861 67.963-20.453 99.033zM779.396 63.866c-9.968 0-19.936 3.884-27.444 11.393l-77.413 77.673c-6.991 6.861-11.393 16.699-11.393 27.314v154.956c0 21.489 17.346 38.706 38.706 38.706s38.706-17.346 38.706-38.706v-139.033l66.151-66.151c15.146-15.146 15.146-39.613 0-54.759-7.508-7.508-17.346-11.393-27.314-11.393z"  horiz-adv-x="1051" />

    
    <glyph glyph-name="hezuo" unicode="&#58896;" d="M710.464 676.8v39.744h116.032s30.272-1.6 38.208-33.344c7.936-31.808 0-122.432 0-122.432h-38.208l-1.408 77.888s1.728 44.48-35.712 35.008l-78.912 3.136zM364.672 458.752s200.448 237.888 318.528 292.992c0 0 83.392 28.992 144.384-24.96 34.752-30.656 94.4-89.728 111.488-122.048 62.976-118.72-70.848-259.84-81.344-259.84S670.08 537.792 670.08 537.792 548.032 436.864 510.016 425.024c-38.016-11.776-99.136-26.88-145.344 33.728zM667.584 321.792c9.216-27.648 79.104-80.384 117.376-120.64 12.096-12.864-2.88-76.096-47.744-58.368-46.656 30.016-43.776 56.128-135.744 116.992-9.28 4.416-32.384 14.912-16.512-13.12 22.016-38.144 93.376-83.904 126.016-123.392 8.448-9.984-11.52-78.976-62.272-50.496-42.368 23.872-90.624 104-135.232 126.272-9.92 2.624-22.784-1.024-4.416-27.264 18.432-26.24 81.728-76.992 110.656-104.896 20.352-19.648 12.864-106.496-82.112-30.976l-73.536-59.776s-60.352 1.344-43.328 41.984l60.352 46.72s17.216 45.376-26.24 28.736c0 0-54.464-41.024-68.864-44.864-16.896-4.48-64.96 6.848-30.848 57.344l51.136 44.096s17.088 40.64-27.52 20.864c0 0-45.312-34.752-55.808-40.768-14.08-8.128-72.832-24.384-45.312 41.344 0 0 49.216 33.728 55.104 47.232 3.904 9.024-1.664 39.104-34.112 18.368 0 0-48.384-29.504-61.376-35.136-17.664-7.616-80.384-12.096-52.8 48.256l61.248 53.504-172.8 155.072s-38.08 102.4 101.056 213.888c0 0 112.896 128.64 220.48 56.448l106.304-72.192-144.32-160s-76.864-55.872 44.672-98.496c99.712-34.624 164.032-6.592 256.256 76.352 7.872 6.976 32 0.64 63.872-34.112 43.84-47.616 126.464-121.728 162.752-162.688 13.888-15.616 10.368-86.144-60.288-57.6-37.696 14.848-126.08 102.272-126.08 102.272s-34.304 26.048-30.016-0.96z"  horiz-adv-x="1024" />

    
    <glyph glyph-name="renwuguanli" unicode="&#58916;" d="M920.064-96.76800000000003z m-428.672 784.64c-30.464 0-57.6 28.672-57.6 60.928 0 32.256 27.136 60.928 57.6 60.928 33.92 0 57.6-28.672 57.6-60.928 0.128-39.424-27.136-60.928-57.6-60.928m159.104 93.056C633.6 780.928 623.36 795.264 623.36 809.6c0 28.672-23.68 53.632-54.144 53.632H409.984c-30.464 0-54.144-24.96-54.144-53.632 0-17.92-13.568-28.672-27.136-28.672h-20.352c-16.896 0-27.136-14.336-27.136-28.672v-85.888c0-17.92 13.568-28.672 27.136-28.672h359.04c16.896 0 27.136 14.336 27.136 28.672v85.888c0 17.92-13.568 28.672-27.136 28.672h-16.896m118.656-368.64l-301.44-372.48c-6.656-10.624-27.136-7.296-37.376 3.584l-203.264 175.36c-3.456 3.584-6.656 10.752 0 14.336l37.376 46.592c3.456 3.584 10.112 3.584 13.568 0l159.232-136.064c6.656-3.584 13.568-3.584 20.352 3.584l250.624 322.304c3.456 7.296 10.112 7.296 13.568 3.584l47.488-42.88c6.656-3.584 10.112-7.296-0.128-17.92m0 304.256v-125.312c0-17.92-13.568-28.672-27.136-28.672l-504.704-3.712c-16.896 0-27.136 14.336-27.136 28.672v125.44c0 17.92-13.568 28.672-27.136 28.672h-16.896c-44.032 3.584-64.256-24.96-64.256-64.512v-698.24c0-32.256 30.464-75.136 71.168-75.136H806.4c33.92 0 71.168 39.296 71.168 75.136V680.832c0 32.256-23.68 64.512-61.056 64.512h-16.896c-16.768-0.256-30.464-10.88-30.464-28.8M365.568 116.99199999999996z"  horiz-adv-x="1024" />

    
    <glyph glyph-name="xiangmu" unicode="&#58880;" d="M984.859 581.288l-468.205 268.171-470.066-268.171 469.136-268.077zM46.588 447.25v-67.019l469.136-268.077 469.136 268.077v67.019l-469.136-268.264zM46.588 246.191v-67.019l469.136-268.077 469.136 268.077v67.019l-469.136-268.264z"  horiz-adv-x="1024" />

    
    <glyph glyph-name="Assets_03" unicode="&#59197;" d="M474.94630969 872.89331371c-5.92975417 0-11.82923776-0.12923677-17.71125646-0.32250994v-332.46561622c3.47076381 0.17231531 6.96481337 0.26313045 10.47865571 0.26313046 114.58642603 0 207.47621376-92.89095168 207.47621376-207.47737771 0-31.41035235-6.99392-61.18254023-19.48680533-87.86701881l313.34672725-105.29185906c25.06610802 61.80543829 38.88629077 129.37180957 38.88628964 200.17142671-0.00116395 294.36289707-238.62809259 532.98982457-532.98982457 532.98982457zM467.71370894 127.77125888c-114.58642603 0-207.47621376 92.89095168-207.47621376 207.4762149 0 91.23183161 58.88538624 168.70751687 140.7213568 196.50040377V781.6614821000001c-214.65642211-33.33143893-378.9594112-218.92239815-378.95941006-442.92112384 0-247.58384981 200.70700259-448.29085241 448.29085241-448.29085241 166.92498205 0 312.53288505 91.23881757 389.69421141 226.56366706L622.29949213 196.88032029c-37.98861938-42.41293995-93.16572615-69.10906141-154.58578319-69.10906141zM395.64035299 368.63130509999996c19.8034944-23.40349497 52.74489401-35.10582386 78.58060061-40.50698923 25.83687168-5.40116423 52.84153117-18.90233003 52.84153117-49.50815402 0-30.60466005-29.05498283-46.80698994-54.58331648-46.80698994-25.5294976 0-58.83532174 14.40233017-58.83532175 54.00931897h-38.70582443s-5.40116423-36.90698866 25.20349469-61.21048405c13.94359751-11.07244601 31.8155264-19.13984683 51.30931883-22.61643037v-38.5928886h39.6069888v38.11552711a116.49703481 116.49703481 0 0 1 33.30582528 10.49262649s39.66403925 14.40233017 39.66403925 69.31164956-46.86636829 73.81281337-63.06869931 76.51281351c-16.20349383 2.70000014-36.00582429 9.00232989-49.50815402 15.30349454s-26.10465906 12.60232931-26.10465906 37.805824 24.95433614 36.90698866 47.13299172 36.90698866 50.98331591-13.50232974 50.98331704-45.90815346l40.50698809 0.90000043s2.70116409 36.00582429-28.8046592 61.21048292c-11.43337757 9.14553742-27.25731101 14.36274347-44.10698979 16.3304027v31.37658766H451.45083563v-32.40815275c-16.05562823-2.66390755-30.60698795-7.95562781-40.50698923-15.30000156-27.90582386-20.70465877-35.10698894-72.0139776-15.30349341-95.41747257z"  horiz-adv-x="1024" />

    
    <glyph glyph-name="yinzhang" unicode="&#58909;" d="M879.641 1.234H133.737c-10.124 0-18.193-10.94-18.193-24.632V-48c0-13.66 8.069-24.631 18.193-24.631h743.878c10.095 0 18.194 10.971 18.194 24.631v24.602c0.001 13.692-8.099 24.632-16.168 24.632m17.408 82.268v56.456c0 31.613-7.012 38.383-39.562 38.383h-116.54c-9.127 1.028-18.678 6.892-26.838 13.449a13.997 13.997 0 0 1-0.695 0.454c-3.445 2.508-7.888 6.86-12.482 11.847-2.236 2.327-4.382 4.745-6.498 7.224v0.03c-3.656 4.231-7.192 8.522-10.698 12.845-69.393 82.78-24.42 140.113 24.843 218.391 9.309 11.273 18.617 22.577 25.6 36.117 20.944 36.146 32.58 76.796 32.58 121.949 0 140.023-116.328 255.203-262.94 255.203-144.254 0-262.909-112.943-262.909-255.203 0-58.723 20.944-112.913 55.853-155.829 55.821-85.804 146.581-155.8 0-266.477H157.13c-25.568 0-39.531-13.54-39.531-38.383v-58.724c0-22.576 16.29-18.043 41.858-18.043h716.647c23.272 2.237 20.945-4.533 20.945 20.311"  horiz-adv-x="1024" />

    
    <glyph glyph-name="waibuwangluo" unicode="&#58906;" d="M149.504 644.642133S217.088 851.490133 449.058133 890.538667c0 0-35.566933-50.926933-69.4272-132.096 0 0-71.133867 7.714133-87.790933-64.512 0 0-75.9808-13.653333-142.472533-49.288534zM293.614933 652.356267s-97.8944-20.6848-160.768-66.901334c0 0-32.699733-137.4208 46.216534-265.966933 0 0 81.3056-17.749333 163.157333-9.557333 0 0-0.546133 51.063467 32.768 76.526933 0 0-40.413867 103.6288-30.378667 213.8112 0.068267 0-41.506133 10.0352-50.9952 52.087467zM211.7632 271.496533s103.8336-159.9488 344.746667-137.966933c0 0-85.538133 81.1008-103.150934 107.178667 0 0-67.106133-16.5888-90.248533 30.72 0 0.068267-86.698667-12.970667-151.3472 0.068266zM487.150933 265.557333s16.5888 7.099733 22.7328 47.377067c0 0 133.802667 46.830933 216.405334 172.373333 0 0 26.077867-1.774933 44.4416 12.424534 0 0 62.395733-58.026667 92.023466-133.802667 0 0-58.231467-165.888-246.852266-219.136 0-0.068267-84.855467 55.022933-128.750934 120.763733zM829.44 721.1008s97.28-111.274667 53.4528-300.373333c0 0-53.998933 86.903467-80.827733 107.042133 0 0 24.098133 46.626133-3.618134 80.964267 0 0 25.736533 50.176 31.061334 112.366933zM419.4304 745.813333s28.535467-22.9376 29.627733-43.895466c0 0 120.6272-7.441067 225.143467-72.977067 0 0 46.6944 38.2976 91.818667 9.8304 0 0 24.849067 45.806933 30.037333 129.979733 0 0-93.3888 122.402133-288.017067 126.7712 0 0-75.912533-103.082667-88.610133-149.7088zM386.2528 597.674667s56.183467-3.549867 65.672533 62.805333c0 0 111.138133-10.24 199.748267-62.805333 0 0-21.367467-67.106133 33.5872-99.9424 0 0-55.364267-83.217067-181.589333-142.9504 0 0-24.849067 57.685333-90.112 47.104 0 0-26.555733 50.858667-27.306667 195.7888zM971.229867 17.339733H586.274133a94.4128 94.4128 0 0 1-30.5152 30.9248v56.456534H455.953067v-56.456534c-12.424533-7.7824-22.9376-18.432-30.583467-30.9248H52.6336a52.565333 52.565333 0 0 1 0-105.0624h378.0608a93.934933 93.934933 0 0 1 150.3232 0h390.212267a52.565333 52.565333 0 0 1 0 105.0624z"  horiz-adv-x="1024" />

    
    <glyph glyph-name="huodong" unicode="&#58907;" d="M165.415385 817.230769H157.538462v-866.461538h106.338461v7.876923V813.292308v7.876923C232.369231 817.230769 196.923077 817.230769 165.415385 817.230769z m0 0M909.784615 805.415385v7.876923c-3.938462 0-3.938462 0-3.938461-3.938462-47.261538-27.569231-98.461538-43.323077-149.661539-55.138461-59.076923-11.815385-114.215385-7.876923-173.292307 7.876923-70.892308 23.630769-137.846154 39.384615-212.676923 47.261538-15.753846 0-35.446154 0-51.2 3.938462v-543.507693c3.938462 0 3.938462 3.938462 3.938461 3.938462 39.384615 27.569231 78.769231 47.261538 126.030769 59.076923 66.953846 19.692308 133.907692 19.692308 200.861539-11.815385 27.569231-11.815385 55.138462-19.692308 82.707692-23.630769 35.446154-3.938462 66.953846 0 98.461539 19.692308 35.446154 19.692308 55.138462 51.2 66.953846 86.646154 3.938462 11.815385 7.876923 23.630769 7.876923 35.446154 3.938462 122.092308 3.938462 244.184615 3.938461 366.276923z m0 0"  horiz-adv-x="1024" />

    
    <glyph glyph-name="lingyong" unicode="&#59060;" d="M1021.765647 236.417388c-18.085627 27.67018-63.838364 16.694189-86.205733 3.219747-34.531198-20.69355-138.410242-109.590079-175.715107-114.286183-36.939614-4.689965-136.901145 2.613039-208.043537 9.347191-80.488559 7.552644-49.103443 40.122529-36.365645 43.591916 12.733705 3.514404 166.897892 11.838479 218.407704 17.75516 46.3707 5.347829 39.674404 51.021786-12.611955 52.861349-52.203486 1.794546-288.940319 17.831894-368.489656 12.485089-79.637326-5.342713-195.922678-111.710999-195.922678-111.710999l4.329828-16.899835L330.698677-17.792225l22.654864 1.796592s41.592747 23.919436 76.163847 31.106828c34.570076 7.219109 225.631929-13.799793 291.635207-4.209101 65.999186 9.594785 235.99712 151.882637 273.308124 182.862599 18.118366 15.181 31.099666 36.81377 27.304928 42.652695zM286.986034-25.299852C273.230235-12.687898 138.289381 106.618716 122.617285 120.739767c-15.595362 14.164022-33.184777 10.817409-43.840533 2.286665-10.694635-8.489819-55.098905-43.02204-67.792708-51.756384-19.633602-13.506158-2.24881-36.07815 8.976822-46.690935 11.146852-10.572884 131.388594-122.041404 149.143754-139.591941 17.798131-17.512682 36.084289-15.63424 49.469719-4.369729 13.346552 11.225632 44.326513 37.835864 64.164739 51.756383 19.835156 13.876526 18.079488 29.753245 4.246956 42.326322zM320.284376 301.520324h499.696137c36.715551 0 66.479027 29.763476 66.479027 66.479027V829.514834c0 36.715551-29.763476 66.479027-66.479027 66.479027H320.284376c-36.715551 0-66.479027-29.763476-66.479027-66.479027v-461.515483c0-36.715551 29.763476-66.479027 66.479027-66.479027zM497.670233 895.993861h144.924423v-255.025036l-72.462211 30.695535-72.462212-30.695535V895.993861z"  horiz-adv-x="1024" />

    
    <glyph glyph-name="official" unicode="&#58936;" d="M614.4 220.15999999999997c0-20.48-20.48-40.96-40.96-40.96H450.56c-20.48 0-40.96 20.48-40.96 40.96v68.26666667h-409.6v-273.06666667c0-47.78666667 40.96-88.74666667 88.74666667-88.74666667h839.68c47.78666667 0 88.74666667 40.96 88.74666666 88.74666667v273.06666667h-409.6l6.82666667-68.26666667z m320.85333333 395.94666667h-109.22666666V711.6800000000001c0 75.09333333-61.44 136.53333333-136.53333334 136.53333333H334.50666667c-75.09333333 0-136.53333333-61.44-136.53333334-136.53333333v-95.57333333H88.74666667C40.96 616.10666667 0 575.1466666700001 0 520.53333333v-129.70666666h1024V520.53333333c0 54.61333333-40.96 95.57333333-88.74666667 95.57333334zM307.2 711.6800000000001c0 13.65333333 13.65333333 27.30666667 27.30666667 27.30666667h354.98666666c13.65333333 0 27.30666667-13.65333333 27.30666667-27.30666667v-95.57333333H307.2V711.6800000000001z"  horiz-adv-x="1024" />

    
    <glyph glyph-name="darendengji" unicode="&#58889;" d="M763.56276793 835.7203035H261.0377216C161.01110329 835.7203035 60.38723129 735.0964315 60.38723129 635.06981319v-501.9189669c0-100.62534201 100.62387086-200.65196146 200.65049031-200.65196146h501.92190919c100.62387086 0 200.65049031 100.62975545 200.65049031 200.65196146V635.06981319c0.59725255 100.02661831-100.02661831 200.65049031-200.04735317 200.65049031zM359.24904391 76.50744206000002c-13.25136441-13.25136441-25.90988971-15.06077582-36.14998073-12.65411185-15.66391296 3.62029397-25.90988971 18.07793266-25.90988971 33.74331676l-9.03970133 483.24525284c0 5.4238208-2.40813511 10.84911389-6.62568277 14.46352326-7.83195705 7.22881991-21.69234205 16.2670501-34.34498276 4.82068367-12.65411186-11.45225102-21.69381319-19.88734407-27.72077226-26.51302685-3.61440939-3.61440939-10.24009216-2.40813511-12.05097358 2.4066651l-15.66391296 38.56400043c-2.40813511 6.02842909-1.20627427 12.65411186 2.4081351 17.47479552 18.07793266 22.29547918 12.65264071 19.28420693 39.77027471 45.79282034 30.12743623 29.52429909 81.34554851 43.38468523 102.43475456 43.38468523 15.06077582 0 40.97066553-3.01127225 48.80262144-22.29548032 8.43656419-22.89420402 6.02842909-34.94370645 6.02842908-49.40722973 0-68.69143666 1.20627427-329.59385714 0-389.24706361 0-4.21754653 4.82068366-6.02842909 7.83195705-3.0098011 40.36899954 47.59487602 219.32714667 262.10722361 224.14930148 336.21806876 1.20627427 19.28567808-4.21754653 31.93831879-12.65411186 37.9608633-7.22881991 4.82068366-15.66391296 7.83195705-25.30675143 9.03970246-3.01127225 0.60460829-6.02842909 2.4140197-7.22881991 5.42529195l-0.601666 1.20627428c-1.20774542 2.40813511-0.60460829 6.02254563 1.80352683 7.83342705 16.87165838 15.66391296 42.78154809 43.37880064 56.64193423 59.04859819 4.82068366 5.4194085 11.44636643 7.22881991 18.68106979 5.4194085 27.71488768-7.22881991 66.27888811-22.29106688 77.12211741-36.75459015 7.8378405-10.24009216 17.47479552-28.92116195 12.65411185-51.81977828-21.09067605-130.75424939-261.50702877-433.23047253-385.03098823-554.34629575z"  horiz-adv-x="1024" />

    
    <glyph glyph-name="kaoqin" unicode="&#58904;" d="M915.0976 775.6288h-57.5488v-101.0176a24.576 24.576 0 0 0-23.6032-19.5584h-182.7328a24.7808 24.7808 0 0 0-24.1664 22.8352V775.6288h-230.4v-95.1296a24.832 24.832 0 0 0-24.2688-25.3952H189.6448a24.4736 24.4736 0 0 0-23.3472 18.432V775.6288H108.7488c-15.2576 0-29.9008-6.3488-40.704-17.6128-10.8032-11.3152-16.8448-26.624-16.8448-42.5984v-783.2064c0-15.9744 6.0416-31.2832 16.8448-42.5472a56.32 56.32 0 0 1 40.704-17.664h806.5024c15.2576 0 29.9008 6.3488 40.704 17.6128 10.8032 11.3152 16.8448 26.624 16.8448 42.5984V715.264c-0.0512 33.28-25.856 60.3136-57.7024 60.3648zM339.1488 112.8448H223.8976v120.5248h115.2512v-120.5248z m0 241.0496H223.8976V474.4704h115.2512v-120.576z m230.3488-241.0496H454.2464v120.5248h115.2512v-120.5248z m0 241.0496H454.2464V474.4704h115.2512v-120.576z m230.3488-241.0496h-115.2512v120.5248h115.2512v-120.5248z m0 241.0496h-115.2512V474.4704h115.2512v-120.576z m0 0M248.1664 715.264h66.6624a24.832 24.832 0 0 1 24.2688 25.3952V870.6048A24.832 24.832 0 0 1 314.8288 896H248.1664a24.832 24.832 0 0 1-24.2688-25.3952v-129.9456c0-14.0288 10.8544-25.3952 24.2688-25.3952z m460.3392 0h66.6624a24.832 24.832 0 0 1 24.2688 25.3952V870.6048A24.8832 24.8832 0 0 1 775.168 896h-66.6624a24.832 24.832 0 0 1-24.2688-25.3952v-129.9456a24.832 24.832 0 0 1 24.2688-25.3952z m0 0"  horiz-adv-x="1024" />

    
    <glyph glyph-name="shenpi" unicode="&#58955;" d="M834.75555555 452.4A280.00000031 280.00000031 0 1 1 754.75555586-96H154.75555586a79.99999969 79.99999969 0 0 0-80.00000061 79.99999969V784.00000031a79.99999969 79.99999969 0 0 0 80.00000061 79.99999969h600a79.99999969 79.99999969 0 0 0 79.99999969-79.99999969v-331.60000031zM214.75555586 624a19.99999969 19.99999969 0 0 1 0-40.00000031h439.99999969a19.99999969 19.99999969 0 1 1 0 40.00000031h-439.99999969z m0-120a19.99999969 19.99999969 0 0 1 0-40.00000031h279.99999939a19.99999969 19.99999969 0 1 1 0 40.00000031h-279.99999939zM726.47555525 139.15999968999995l-70.71999939 70.68a19.99999969 19.99999969 0 1 1-28.28000063-28.27999969l84.84-84.84a19.92 19.92 0 0 1 28.28000063 0l141.43999969 141.43999969a19.99999969 19.99999969 0 1 1-28.27999969 28.28000062l-127.28000063-127.28000062zM754.75555586-55.99999968999998a240 240 0 1 0 0 480 240 240 0 0 0 0-480z"  horiz-adv-x="1024" />

    
    <glyph glyph-name="dangyuanrenzheng-" unicode="&#58963;" d="M308.28687501 70.58249999999998V735.7190624899999H251.25312502c-32.0690625 0-58.06031253-26.4721875-58.06031252-59.13187497v-354.735h-12.15656249c-32.053125 0-50.59874998-26.48812506-50.59875003-59.131875v-295.60312501c0-32.64374998 18.54562501-59.13187501 50.59875003-59.13187501h649.79156248l-464.46562499 100.23375c-36.15750001 7.52343754-58.07531247 29.720625-58.07531249 62.3634375zM835.98968751 757.869375L411.79999998 863.06250001c-32.3175 0-58.51124999-26.908125-58.51124997-60.11156248v-691.20468752c0-33.2034375 23.25562506-52.35375001 58.51124997-57.9196875L894.50000001-60.179999990000056V697.7728125900001c0 33.1884375-26.176875 60.0965625-58.51031252 60.09656241z m-60.62625001-500.84062503l-32.05218751 29.25468754c-32.023125-26.39250001-68.3671875-41.16281249-109.40624998-42.96656248-41.1309375-1.80281251-78.46968748 9.826875-112.03125002 34.51218747-2.03624999-1.245-2.6878125-2.79749998-2.14500001-5.40937498 3.31125002-15.48375001-7.4615625-31.93125001-22.71187498-34.91531252-12.45-2.45531251-24.14062501 2.675625-30.8409375 13.52437499-6.49593757 10.569375-5.874375 24.12468751 1.54031247 34.0125 6.3271875 8.51906251 14.86125001 12.49874999 25.43156254 11.56500002 0.9328125-0.09281248 2.05125001-0.12562501 2.79843746 0.34218748 2.22281251 1.27312498 2.28468751 2.45531251 0.51187502 4.44468751a181.23562499 181.23562499 0 0 0-22.46062501 31.71375001c-0.9028125 1.584375-0.96375001 2.61093748 0.34031252 4.10156252 7.9753125 9.01593754 15.82499998 18.155625 23.69156251 27.23531249 0.54375001 0.6215625 0.96281249 1.36874998 1.53843756 2.14499999 29.566875-31.86562501 65.13375001-49.33874997 107.60156243-50.8321875 28.5403125-1.0265625 55.0603125 6.28125001 79.86843746 21.95062499L566.56531246 447.9215625l-36.56249997-42.11156249-51.74906248 47.33437501c2.068125 2.45531251 3.99468751 4.80281251 5.985 7.08656248 13.86656249 15.99749998 27.76499999 31.99218743 41.62874999 47.97375001 12.65437499 14.62687499 25.4015625 29.206875 37.96125001 43.92749998 2.33156251 2.75156249 4.29093751 3.886875 8.20781249 2.96906252 17.908125-4.2121875 34.2609375-0.38906249 48.87375 11.17593745 0.24843751 0.2015625 0.560625 0.343125 1.05562499 0.65437501l26.64468751-24.34406248-36.49874999-42.12562499c40.6340625-37.1840625 81.1753125-74.2425 122.15249999-111.73875002 23.37843747 48.470625 23.16 96.42562499-1.8046875 143.26218752-24.83999999 46.6190625-64.35562499 72.58031252-115.40531252 80.53968753l0.18562504 0.82312497c3.1715625 0.343125 6.34406251 0.87000001 9.51375 0.99562504 25.1203125 1.055625 49.49437499-2.55 72.99749997-11.89312502 17.09906246-6.7471875 33.0178125-16.24312497 47.22562503-28.13531252 21.36-17.87718749 37.6509375-39.7490625 48.90468748-65.52093751 7.21218751-16.4475 11.7825-33.65625001 14.02125002-51.56437499 1.89656251-15.1565625 2.02125001-30.35812501 0.27937497-45.49874999-2.85937498-24.639375-10.07250001-47.90906247-21.82406247-69.6403125-0.84000001-1.58624997-0.65343754-2.33343751 0.65249994-3.51562506 10.26000001-9.2634375 20.42625001-18.6225 30.62437502-27.98156247 0.3721875-0.309375 0.6215625-0.71437499 1.11843751-1.27312498-15.106875-17.37562505-30.1546875-34.72593754-45.38999999-52.29187498z"  horiz-adv-x="1024" />

    
    <glyph glyph-name="gonggongfuwu-hangyefuwu" unicode="&#58899;" d="M866.5-0.4H157c-32.7 0-59.2 26.5-59.2 59.1V295.5h827.9v-236.7c0-32.7-26.5-59.1-59.2-59.2 0.1 0 0.1 0 0 0zM97.8 531.7c0 32.7 26.5 59.2 59.1 59.2h118.4V709.2c0 32.6 26.5 59.1 59.1 59.1h355c32.7 0 59.2-26.5 59.2-59.1v-118.4H867c32.7 0 59.2-26.5 59.2-59.1v-177H97.8v177z m236.7 59.2h355V650c0 32.7-26.5 59.2-59.1 59.2H393.6c-32.7 0-59.2-26.5-59.2-59.1v-59.2h0.1z"  horiz-adv-x="1024" />

    


  </font>
</defs>
</svg>
